+ Reply to Thread
Page 144 of 145 FirstFirst ... 44 94 134 142 143 144 145 LastLast
Results 2,861 to 2,880 of 2891

Thread: One Pace

  1. #2861

    Default Re: One Pace

    Quote Originally Posted by Zephray View Post
    Huh? Page One isn’t a nobody. He’s one of the strongest members of Kaido’s crew. Guess you haven’t read the manga?
    Neither have I

  2. #2862

    Default Re: One Pace

    Quote Originally Posted by zebweasel View Post
    For some reason, Wano episodes wont play for me. At first I thought they changed something in the way they make their torrents, but new episodes from other arcs still play normally. it seems to be only Wano that is giving me issues. Does anybody understand the issue and can help me out?
    Possibly since the encoder was changed to use chroma subsampling 4:2:2

    This causes serious issues if your devices uses hardware decoder such as Raspberry Pi 4

    I would love for One Pace to go back to 4:2:0 so that it would work on RPi, Chromecasts, FireSticks etc without having to personally transcode every episode.

    For reference the last episode of WHI that works on RPi4 with HW decoder and 4:2:0

    Code:
    General
    Unique ID                   : 282345556532334229272465759762920404680 (0xD469C6B4FAC9BB714B90C46290EA76C8)
    Complete name               : R:\Shows\One Pace (1999)\[One Pace][823-902] Whole Cake Island [720p]\[One Pace][901-902] Whole Cake Island 39 [720p][ADF1B361].mkv
    Format                      : Matroska
    Format version              : Version 4 / Version 2
    File size                   : 260 MiB
    Duration                    : 34 min 30 s
    Overall bit rate            : 1 054 kb/s
    Encoded date                : UTC 2019-04-04 23:54:40
    Writing application         : mkvmerge v32.0.0 ('Astral Progressions') 64-bit
    Writing library             : libebml v1.3.7 + libmatroska v1.5.0
    Attachments                 : Archaic1897.otf / arial.ttf / FOT-GrecoStd-B.otf / IMPRESS-BT-42347_0.TTF / Roboto-Bold.ttf / AGENCYB_0.TTF / duality.ttf
    
    
    Video
    ID                          : 2
    Format                      : HEVC
    Format/Info                 : High Efficiency Video Coding
    Format profile              : Main 10@L3.1@Main
    Codec ID                    : V_MPEGH/ISO/HEVC
    Duration                    : 34 min 30 s
    Bit rate                    : 895 kb/s
    Width                       : 1 280 pixels
    Height                      : 720 pixels
    Display aspect ratio        : 16:9
    Frame rate mode             : Variable
    Frame rate                  : 23.844 FPS
    Original frame rate         : 23.976 (24000/1001) FPS
    Color space                 : YUV
    Chroma subsampling          : 4:2:0
    Bit depth                   : 10 bits
    Bits/(Pixel*Frame)          : 0.041
    Stream size                 : 221 MiB (85%)
    Writing library             : x265 2.9:[Windows][GCC 8.2.0][64 bit] 10bit
    Encoding settings           : cpuid=1111039 / frame-threads=3 / numa-pools=8 / wpp / no-pmode / no-pme / no-psnr / no-ssim / log-level=2 / input-csp=1 / input-res=1280x720 / interlace=0 / total-frames=0 / level-idc=0 / high-tier=1 / uhd-bd=0 / ref=3 / no-allow-non-conformance / no-repeat-headers / annexb / no-aud / no-hrd / info / hash=0 / no-temporal-layers / open-gop / min-keyint=24 / keyint=240 / gop-lookahead=0 / bframes=4 / b-adapt=2 / b-pyramid / bframe-bias=0 / rc-lookahead=20 / lookahead-slices=4 / scenecut=40 / radl=0 / no-intra-refresh / ctu=64 / min-cu-size=8 / no-rect / no-amp / max-tu-size=32 / tu-inter-depth=1 / tu-intra-depth=1 / limit-tu=0 / rdoq-level=0 / dynamic-rd=0.00 / no-ssim-rd / signhide / no-tskip / nr-intra=0 / nr-inter=0 / no-constrained-intra / strong-intra-smoothing / max-merge=2 / limit-refs=3 / no-limit-modes / me=1 / subme=2 / merange=57 / temporal-mvp / weightp / no-weightb / no-analyze-src-pics / deblock=0:0 / sao / no-sao-non-deblock / rd=3 / no-early-skip / rskip / no-fast-intra / no-tskip-fast / no-cu-lossless / no-b-intra / no-splitrd-skip / rdpenalty=0 / psy-rd=2.00 / psy-rdoq=0.00 / no-rd-refine / no-lossless / cbqpoffs=0 / crqpoffs=0 / rc=crf / crf=22.0 / qcomp=0.60 / qpstep=4 / stats-write=0 / stats-read=0 / ipratio=1.40 / pbratio=1.30 / aq-mode=1 / aq-strength=1.00 / cutree / zone-count=0 / no-strict-cbr / qg-size=32 / no-rc-grain / qpmax=69 / qpmin=0 / no-const-vbv / sar=1 / overscan=0 / videoformat=5 / range=0 / colorprim=1 / transfer=1 / colormatrix=1 / chromaloc=0 / display-window=0 / max-cll=0,0 / min-luma=0 / max-luma=1023 / log2-max-poc-lsb=8 / vui-timing-info / vui-hrd-info / slices=1 / no-opt-qp-pps / no-opt-ref-list-length-pps / no-multi-pass-opt-rps / scenecut-bias=0.05 / no-opt-cu-delta-qp / no-aq-motion / no-hdr / no-hdr-opt / no-dhdr10-opt / no-idr-recovery-sei / analysis-reuse-level=5 / scale-factor=0 / refine-intra=0 / refine-inter=0 / refine-mv=0 / no-limit-sao / ctu-info=0 / no-lowpass-dct / refine-mv-type=0 / copy-pic=1 / max-ausize-factor=1.0 / no-dynamic-refine / no-single-sei
    Language                    : Japanese
    Default                     : Yes
    Forced                      : No
    Color range                 : Limited
    Color primaries             : BT.709
    Transfer characteristics    : BT.709
    Matrix coefficients         : BT.709
    
    
    Audio
    ID                          : 3
    Format                      : AAC
    Format/Info                 : Advanced Audio Codec
    Format profile              : LC
    Codec ID                    : A_AAC-2
    Duration                    : 34 min 30 s
    Bit rate                    : 128 kb/s
    Channel(s)                  : 2 channels
    Channel positions           : Front: L R
    Sampling rate               : 48.0 kHz
    Frame rate                  : 46.875 FPS (1024 SPF)
    Compression mode            : Lossy
    Stream size                 : 31.6 MiB (12%)
    Language                    : Japanese
    Default                     : Yes
    Forced                      : No
    
    
    Text
    ID                          : 1
    Format                      : ASS
    Codec ID                    : S_TEXT/ASS
    Codec ID/Info               : Advanced Sub Station Alpha
    Duration                    : 34 min 24 s
    Bit rate                    : 1 524 b/s
    Count of elements           : 3226
    Compression mode            : Lossless
    Stream size                 : 384 KiB (0%)
    Language                    : English
    Default                     : Yes
    Forced                      : No
    And first episode of Reverie that uses 4:2:2 and does not play on RPi4
    Code:
    General
    Unique ID                   : 248751220370257365649011314120815745601 (0xBB23BE0E048EA9D08251D46EBFCF1A41)
    Complete name               : R:\Shows\One Pace (1999)\[One Pace][903-908] Reverie [720p]\[One Pace][903-904] Reverie 01 [720p][2F6733AF].mkv
    Format                      : Matroska
    Format version              : Version 4 / Version 2
    File size                   : 336 MiB
    Duration                    : 33 min 30 s
    Overall bit rate            : 1 400 kb/s
    Encoded date                : UTC 2020-04-09 10:24:10
    Writing application         : mkvmerge v28.2.0 ('The Awakening') 64-bit
    Writing library             : libebml v1.3.6 + libmatroska v1.4.9
    Attachments                 : AGENCYB_0.TTF / arial.ttf / FOT-GrecoStd-B.otf / IMPRESS-BT-42347_0.TTF / Roboto-Bold.ttf
    
    
    Video
    ID                          : 1
    Format                      : HEVC
    Format/Info                 : High Efficiency Video Coding
    Format profile              : @L3.1@Main
    Codec ID                    : V_MPEGH/ISO/HEVC
    Duration                    : 33 min 30 s
    Bit rate                    : 1 243 kb/s
    Width                       : 1 280 pixels
    Height                      : 720 pixels
    Display aspect ratio        : 16:9
    Frame rate mode             : Constant
    Frame rate                  : 23.976 (24000/1001) FPS
    Color space                 : YUV
    Chroma subsampling          : 4:2:2
    Bit depth                   : 8 bits
    Bits/(Pixel*Frame)          : 0.056
    Stream size                 : 298 MiB (89%)
    Writing library             : x265 3.0_Au+21-bac0e1acb874:[Windows][GCC 8.3.1][64 bit] 8bit+10bit
    Encoding settings           : cpuid=1111039 / frame-threads=3 / numa-pools=8 / wpp / no-pmode / no-pme / no-psnr / no-ssim / log-level=2 / input-csp=2 / input-res=1280x720 / interlace=0 / total-frames=0 / level-idc=0 / high-tier=1 / uhd-bd=0 / ref=4 / no-allow-non-conformance / no-repeat-headers / annexb / no-aud / no-hrd / info / hash=0 / no-temporal-layers / open-gop / min-keyint=23 / keyint=250 / gop-lookahead=0 / bframes=6 / b-adapt=2 / b-pyramid / bframe-bias=0 / rc-lookahead=25 / lookahead-slices=4 / scenecut=40 / radl=0 / no-splice / no-intra-refresh / ctu=64 / min-cu-size=8 / rect / no-amp / max-tu-size=32 / tu-inter-depth=1 / tu-intra-depth=1 / limit-tu=0 / rdoq-level=2 / dynamic-rd=0.00 / no-ssim-rd / signhide / no-tskip / nr-intra=0 / nr-inter=0 / no-constrained-intra / strong-intra-smoothing / max-merge=3 / limit-refs=3 / limit-modes / me=3 / subme=3 / merange=57 / temporal-mvp / weightp / no-weightb / no-analyze-src-pics / deblock=1:1 / sao / no-sao-non-deblock / rd=4 / no-early-skip / rskip / no-fast-intra / no-tskip-fast / no-cu-lossless / no-b-intra / no-splitrd-skip / rdpenalty=0 / psy-rd=0.40 / psy-rdoq=1.00 / no-rd-refine / no-lossless / cbqpoffs=0 / crqpoffs=0 / rc=crf / crf=18.0 / qcomp=0.60 / qpstep=4 / stats-write=0 / stats-read=0 / ipratio=1.40 / pbratio=1.30 / aq-mode=2 / aq-strength=0.40 / cutree / zone-count=0 / no-strict-cbr / qg-size=32 / no-rc-grain / qpmax=69 / qpmin=0 / no-const-vbv / sar=0 / overscan=0 / videoformat=5 / range=0 / colorprim=2 / transfer=2 / colormatrix=2 / chromaloc=0 / display-window=0 / max-cll=0,0 / min-luma=0 / max-luma=255 / log2-max-poc-lsb=8 / vui-timing-info / vui-hrd-info / slices=1 / no-opt-qp-pps / no-opt-ref-list-length-pps / no-multi-pass-opt-rps / scenecut-bias=0.05 / no-opt-cu-delta-qp / no-aq-motion / no-hdr / no-hdr-opt / no-dhdr10-opt / no-idr-recovery-sei / analysis-reuse-level=5 / scale-factor=0 / refine-intra=0 / refine-inter=0 / refine-mv=0 / refine-ctu-distortion=0 / no-limit-sao / ctu-info=0 / no-lowpass-dct / refine-analysis-type=0 / copy-pic=1 / max-ausize-factor=1.0 / no-dynamic-refine / no-single-sei / no-hevc-aq / no-svt / qp-adaptation-range=1.00
    Language                    : Japanese
    Default                     : Yes
    Forced                      : No
    
    
    Audio
    ID                          : 2
    Format                      : AAC
    Format/Info                 : Advanced Audio Codec
    Format profile              : LC
    Codec ID                    : A_AAC-2
    Duration                    : 33 min 30 s
    Bit rate                    : 128 kb/s
    Channel(s)                  : 2 channels
    Channel positions           : Front: L R
    Sampling rate               : 48.0 kHz
    Frame rate                  : 46.875 FPS (1024 SPF)
    Compression mode            : Lossy
    Stream size                 : 30.7 MiB (9%)
    Language                    : Japanese
    Default                     : Yes
    Forced                      : No
    
    
    Text
    ID                          : 3
    Format                      : ASS
    Codec ID                    : S_TEXT/ASS
    Codec ID/Info               : Advanced Sub Station Alpha
    Duration                    : 33 min 28 s
    Bit rate                    : 179 b/s
    Count of elements           : 688
    Compression mode            : Lossless
    Stream size                 : 44.0 KiB (0%)
    Language                    : English
    Default                     : Yes
    Forced                      : No

  3. #2863

    Default Re: One Pace

    Quote Originally Posted by RoboBlue View Post
    What forum is that?
    In the forum Animes.so. Unfortunately it isn't that easy to get into the relevant thread. Because for some time now you need an account for at least 48 hours and you have to write 20 posts there before you can see the download area.

  4. #2864

    Default Re: One Pace

    Quote Originally Posted by BloobyVolley View Post
    Neither have I
    Wasn’t spoiling anything, though. They say in that same episode that Page One is a “Tobbi Roppo,” which is one of the strongest groups within Kaido’s crew.
    Going broke while paying to fix your child's gigantism? M4A can help! Vote Bernie Sanders 2020!



  5. #2865

    Default Re: One Pace

    I was told over on the One Piece reddit, that you guys "eventually" plan to redo arcs with Blu-Ray rips? Is this true?

  6. #2866

    Default Re: One Pace

    Quote Originally Posted by DrTraDaddy View Post
    I was told over on the One Piece reddit, that you guys "eventually" plan to redo arcs with Blu-Ray rips? Is this true?
    Very True!

    Wano 17 is out!


    Torrent: https://api.onepace.net/download/tor...972e810db9c241


    Direct Download MP4:https://www74.zippyshare.com/v/3VGLlMZZ/file.html

  7. #2867

    Post Re: One Pace

    Quote Originally Posted by Feeso View Post

    WOW that's amazing news! I can not wait for that!
    Also hell yes a new Wano! Thanks guys!

  8. #2868

    Default Re: One Pace

    Very excited. Wano 16 was great; real nice work there. It was a pleasure to watch the whole Sanji fight in one episode, and it was also nice to see longer scenes and so much covered here.

    But these file sizes keep getting bigger. This one is 1.5GB. Did we ever get an answer as to why these are so huge? Higher image quality, or just a weird export setting clicked that blows them up? Wano 6 was 700MB; they've more than doubled for some reason.
    Going broke while paying to fix your child's gigantism? M4A can help! Vote Bernie Sanders 2020!



  9. #2869
    Swords and Tangerines Zo-Na's Avatar
    Join Date
    Mar 2007
    Location
    Second star to the right is where you'll find me if you believe

    Default Re: One Pace

    Quote Originally Posted by Zephray View Post
    Very excited. Wano 16 was great; real nice work there. It was a pleasure to watch the whole Sanji fight in one episode, and it was also nice to see longer scenes and so much covered here.

    But these file sizes keep getting bigger. This one is 1.5GB. Did we ever get an answer as to why these are so huge? Higher image quality, or just a weird export setting clicked that blows them up? Wano 6 was 700MB; they've more than doubled for some reason.
    Are they? For me Wano 6 is only 280mb, Wano 16 was 315mb and Wano 17 was 347mb.


  10. #2870

    Default Re: One Pace

    Quote Originally Posted by Zo-Na View Post
    Are they? For me Wano 6 is only 280mb, Wano 16 was 315mb and Wano 17 was 347mb.
    huh? You doing the direct download option? They must have different files depending on how you download. I was torrenting.
    Going broke while paying to fix your child's gigantism? M4A can help! Vote Bernie Sanders 2020!



  11. #2871

    Default

    Quote Originally Posted by Zephray View Post
    Very excited. Wano 16 was great; real nice work there. It was a pleasure to watch the whole Sanji fight in one episode, and it was also nice to see longer scenes and so much covered here. But these file sizes keep getting bigger. This one is 1.5GB. Did we ever get an answer as to why these are so huge? Higher image quality, or just a weird export setting clicked that blows them up? Wano 6 was 700MB; they've more than doubled for some reason.
    Yes, it’s to preserve image quality. Keep in mind that Crunchyroll’s own 1080p encodes of these episodes are 1.4gb, and they’re only 24 minute episodes. The encoding preset has evolved over the course of Wano’s release cycle, and the preset we’re using now is what we settled on for the best quality to size ratio. Other arcs are using slightly modified versions of the preset, and may be smaller because of less movement in the episode and because a lower CRF is not needed to preserve as much detail. Zippyshare can be used as an alternative for more highly compressed files.

  12. #2872
    Swords and Tangerines Zo-Na's Avatar
    Join Date
    Mar 2007
    Location
    Second star to the right is where you'll find me if you believe

    Default Re: One Pace

    Quote Originally Posted by Zephray View Post
    huh? You doing the direct download option? They must have different files depending on how you download. I was torrenting.
    Yeah, thats what I've been doing. I think the episodes look perfectly fine too that way.


  13. #2873

    Default Re: One Pace

    Quote Originally Posted by Galaxy 9000 View Post
    Yes, it’s to preserve image quality. Keep in mind that Crunchyroll’s own 1080p encodes of these episodes are 1.4gb, and they’re only 24 minute episodes. The encoding preset has evolved over the course of Wano’s release cycle, and the preset we’re using now is what we settled on for the best quality to size ratio. Other arcs are using slightly modified versions of the preset, and may be smaller because of less movement in the episode and because a lower CRF is not needed to preserve as much detail. Zippyshare can be used as an alternative for more highly compressed files.
    Thanks for your answer! That makes sense to me. It’s nice to have both options, so I can keep the smaller files permanently on my limited-space devices.
    Going broke while paying to fix your child's gigantism? M4A can help! Vote Bernie Sanders 2020!



  14. #2874

    Default Re: One Pace

    Thankya all for doing this. Like seriously.

    We're getting my sister's Girlfriend into One Piece and this version has been wonderful. Just finished Syrup Village and we got there super fast. I'm actually gonna be sad when we hit Little Garden and have to go all regular OP for a while.

    Switch Friend Code: SW-1795-2519-1884 • Click Here to check out my Twitch Channel

  15. #2875
    Discovered Stowaway Sil3ntgames's Avatar
    Join Date
    Oct 2018
    Location
    Raftel

    Default Re: One Pace

    Quote Originally Posted by Galaxy 9000 View Post
    Wano 15 is out!
    Torrent
    Direct Download MP4

    Quote Originally Posted by Feeso View Post

    Quote Originally Posted by Feeso View Post
    Can't wait to watch these, thank you so much guys.

  16. #2876

    Default Re: One Pace

    Little Garden 2 is out!


    Torrent
    Zippyshare MP4

    One Pace - The One Piece anime without the filler and padding.
    AP Discord

  17. #2877

    Default Re: One Pace

    Quote Originally Posted by Galaxy 9000 View Post
    Little Garden 2 is out!


    Torrent
    Zippyshare MP4
    Awesome! Thank you! We're halfway through Arlong Park now so we're coming up on this!

    What's up next after Little Garden? Going Straight into Drum? Gonna finish up one of the unfinished arcs like Skypiea, Enies Lobby, etc?

    Switch Friend Code: SW-1795-2519-1884 • Click Here to check out my Twitch Channel

  18. #2878

    Default Re: One Pace

    Quote Originally Posted by Demon Rin View Post
    Awesome! Thank you! We're halfway through Arlong Park now so we're coming up on this!

    What's up next after Little Garden? Going Straight into Drum? Gonna finish up one of the unfinished arcs like Skypiea, Enies Lobby, etc?
    One of the editors-in-training mentioned that they were planning to re-do Return To Sabaody.

  19. #2879

    Default Re: One Pace

    Quote Originally Posted by Demon Rin View Post
    Awesome! Thank you! We're halfway through Arlong Park now so we're coming up on this!

    What's up next after Little Garden? Going Straight into Drum? Gonna finish up one of the unfinished arcs like Skypiea, Enies Lobby, etc?
    Drum is on the docket right after Little Garden or possibly even while Little Garden is coming out. Two different people are handling that part.

    I myself am handling the Enies Lobby Gap, while Sewil focuses on the Post-War gap. The Skypiea gap belongs to Feeso and it should continue eventually.

    But like always, there's no clear release path. Whatever gets done, gets released.

    One Pace - The One Piece anime without the filler and padding.
    AP Discord

  20. #2880
    Discovered Stowaway Lord Gaimon's Avatar
    Join Date
    Jul 2014
    Location
    Tunisia

    Default Re: One Pace

    are you using the official subs or fansubs here?

+ Reply to Thread

Thread Information

Users Browsing this Thread

There are currently 2 users browsing this thread. (1 members and 1 guests)

  1. TARIPAR

Posting Permissions

  • You may not post new threads
  • You may not post replies
  • You may not post attachments
  • You may not edit your posts